» » Junichi Nakatsuru, Ryuichi Takada and Keiki Kobayashi - Soul Calibur III Soundtrack
Junichi Nakatsuru, Ryuichi Takada and Keiki Kobayashi - Soul Calibur III Soundtrack Album
TV, Media
Performer: Junichi Nakatsuru, Ryuichi Takada and Keiki Kobayashi
Title: Soul Calibur III Soundtrack
Style: Soundtrack
Year 25 Oct 2005
Country US
Label Namco
Genre: TV, Media
Rating: 4.5
Votes: 771
MP3 size: 2115 mb
FLAC size: 1229 mb
WMA size: 2383 mb
Record From: CD

Junichi Nakatsuru, Ryuichi Takada and Keiki Kobayashi - Soul Calibur III Soundtrack Album

Tracklist

1Through Molten Caves2:06
2Wings Of Despair1:09
3Endless Warfare2:04
4Face Your Fate1:42
5Blind Loyalty2:09
6Call Of The Ancients1:55
7Battle For The Crown1:17
8Tales Of Souls1:23
9Forsaken Sanctuary1:33
10Path Of Destiny6:29
11Ephemeral Dream1:38
12Lorekeeper1:22
13Courage Ablaze1:48
14Water Dance2:14
15Catastrophe1:30
16The Evil Moon2:12
17Eternal Wayfarer1:25
18History Beckons1:30
19Sail Over The Storm2:06
20Time Marches On1:53
21Pure Breeze1:43
22The New Legend1:42
23Radiant Souls1:19
24Peaceful Days2:57
25No Regrets2:31
26Fearless Eyes2:31
27Approaching Tempest1:04
28Bred From The Gap1:23
29Beyond The Horizon2:13
30Symphony Of Swords2:45
31The Cursed Image1:40
32Healing Winds3:23
33Hour Of Destiny3:48
34The Blade Seeker2:59
35World Distortion1:39

Notes

This soundtrack CD came as a bonus for buying the official game guide.

Barcodes

  • Other (SID Mastering Code): LN07

Companies

  • Copyright (c) – Namco LTD.

Album

Ryuichi Takada , KEIKI KOBAYASHI and others. Songs in album Soul Calibur 3 -LEGEND OF SOUNDS- 2005. Junichi Nakatsuru - TALES OF SOULS. Junichi Nakatsuru - ETERNAL WAYFARER. Junichi Nakatsuru - THE ORDEAL. Junichi Nakatsuru - THE INTRUDER. Junichi Nakatsuru - UNDER A BLACK CURSE. Junichi Nakatsuru - The Legend Will Never Die, Forsaken Sanctuary Soul Calibur 3 OST, Soul Calibur II OST - History Unfolds Junichi Nakatsuru, Junichi Nakatsuru Soul Calibur 3 - FORSAKEN SANCTUARY и другие скачать в mp3 и слушать музыку онлайн бесплатно. Hour Of Destiny - Junichi Nakatsuru Soul Calibur III. Keiki Kobayashi Soul Calibur 3 OST скачать mp3 в хорошем качестве, либо слушайте песню Soul Calibur 3 - Огонь Храбрости, Soul Calibur 3 - Время Идёт, Soul Calibur 3 - Wings Of Despair, Soul Calibur 3 - Крылья. Ryuichi Takada - Upon My Soul 26. Ryuichi Takada - Crimson Feast 27. Ryuichi Takada - The Hollow Delusion 28. Junichi Nakatsuru - Fearless WAVE INDEX 01 00:00:00 TRACK 05 AUDIO TITLE Call of the Ancients PERFORMER Ryuichi Takada INDEX 00 02:32:26FILE 05. Ryuichi Takada - Call of the WAVE INDEX 01 00:00:00 TRACK 06 AUDIO TITLE Time Marches On PERFORMER Keiki Kobayashi INDEX 00 02:17:43FILE 06. Keiki Kobayashi - Time Marches WAVE INDEX 01 00:00:00 TRACK 07 AUDIO TITLE Wings of Despair PERFORMER Keiki Kobayashi INDEX 00 02:21:29FILE 07. Все песни исполнителя Soul Calibur OST Junichi Nakatsuru Вы можете скачать бесплатно в mp3-формате, либо слушайте песню Junichi Nakatsuru - The Frontier of History Soul Calibur V OST, Junichi Nakatsuru Soul Calibur 3 - FORSAKEN SANCTUARY, а также рингтоны на звонок и все новые треки. Junichi Nakatsuru Soul Calibur III Hour Of Destiny. Soul Calibur 2 Path of Destiny by Junichi Nakatsuru. Soul Calibur 3 Radiant Souls by Keiki Kobayashi. OST Soul Calibur IV - Junichi Nakatsuru Seize Your Destiny. Ryuichi Takada BLIND LOYALTY. Soul Calibur 2 Непоколебимая Решимость. Soulcalibur III Original Soundtrack - Legend of Sounds is the original soundtrack of Soulcalibur III. It was composed by Junichi Nakatsuru, Ryuichi Takada, and Keiki Kobayashi. Categories: Soundtracks. Community content is available under CC-BY-SA unless otherwise noted. See also releases of Junichi Nakatsuru, Ryuichi Takada, Keiki Kobayashi: Click to release cover to see details: Distres. The page does not contains any audio, text, video media material, protected by copyright law and does not contains any illegal MP3 content. If you want to get acquainted with the music, buy from authorized distributors. Game: Soul Calibur III 2005 Platform: Arcade, Sony PlayStation 2 Composers: Junichi Nakatsuru, Ryuichi Takada, Keiki Kobayashi Disc 1 0:00: III Original Soundtrack - Legend of Sounds is the soundtrack album for Soulcalibur III. It was composed by Namco employees Junichi Nakatsuru, Ryuichi Takada, and Keiki Kobayashi. Its 62 tracks span two discs and have a duration of 2:15:53. The album was published by Victor Entertainment on November 23, 2005 with the catalog number VIZL-158. Like the previous soundtrack in the series, a one-disc, 35-track version of the album was included in the North American strategy guide for the game. Listen to music from Junichi Nakatsuru, Ryuichi Takada, Keiki Kobayashi like Hour Of Destiny, Blind Loyalty & more. Find the latest tracks, albums, and images from Junichi Nakatsuru, Ryuichi Takada, Keiki Kobayashi. Track name