» » John O'Banion - John O'Banion
John O'Banion - John O'Banion Album
Rock
Performer: John O'Banion
Title: John O'Banion
Style: Pop Rock
Year 25 Apr 1990
Country Japan
Label Elektra
Catalog Number WPCP-3452
Genre: Rock
Rating: 4.6
Votes: 658
MP3 size: 2072 mb
FLAC size: 1666 mb
WMA size: 1148 mb
Record From: CD, Album, Reissue

John O'Banion - John O'Banion Album

Tracklist

1Our Love Can Make It
Written-By – Joey Carbone, Richie Zito
3:12
2Love Is In Your Eyes
Written-By – Joey Carbone
3:17
3Walk Away Renee
Written-By – Bob Calilli, Mike Brown, Tony Sansone
2:30
4Come To My Love
Written-By – Joey Carbone
3:21
5Love Is Blind
Written-By – Joey Carbone
3:34
6She's Not For You
Written-By – Richie Zito
4:00
7If You Love Me
Written-By – Marc Tanner, Richie Zito
3:30
8Love You Like I Never Loved Before
Written-By – Joey Carbone, Kathi Pinto, Richie Zito
3:29
9You're In My Life Again
Written-By – Joey Carbone
3:09
10Take A Chance On Love
Written-By – Joey Carbone, Nancy Shanks, Richie Zito
3:14

Versions

CategoryArtistTitle (Format)LabelCategoryCountryYear
X6E-342John O'Banion John O'Banion ‎(LP, Album)ElektraX6E-342Canada1981
WPCR-17406John O'Banion John O'Banion ‎(CD, Album, Ltd, RE, RM, SHM)ElektraWPCR-17406Japan2016
6E-342John O'Banion John O'Banion ‎(LP, Album, Promo, W/Lbl)Elektra6E-342US1981
VSCD-3514John O'Banion John O´Banion +2 ‎(CD, Album, Ltd, RE, RM, Pap)Vivid SoundVSCD-3514Japan2011
ELK 52 284John O'Banion John O'Banion ‎(LP, Album)ElektraELK 52 284Germany1981

Credits

  • Arranged By, Contractor [Strings]James Newton Howard (tracks: 2, 5)
  • Art DirectionRon Coro
  • Backing VocalsBobby Kimball, Jimmy Haas, Joey Carbone, Jon Joyce, Stan Farber
  • BassDennis Belfield
  • ConcertmasterSid Sharp
  • DesignNorm Ung, Ron Coro
  • DrumsCarlos Vega
  • Engineer [Assistant]Dave Marquette, Jim Hodson, Rick Surber, Tim Boyle
  • GuitarRichie Zito
  • KeyboardsJoey Carbone, Richie Zito (tracks: 9)
  • PercussionJoey Carbone, Lenny Castro
  • Photography ByBob Seidemann
  • Producer, Arranged ByJoey Carbone, Richie Zito
  • Recorded By, Mixed ByKent Nebergall

Notes

©1981 Elektra Entertainment
℗1981 WEA International
Manufactured by Warner-Pioneer Corporation, Japan
Produced for Carbone and Zito Productions.
Bobby Kimball appears courtesy of Columbia Records

Barcodes

  • Barcode: 4988014734523
  • Rights Society: JASRAC

Companies

  • Manufactured By – Warner-Pioneer Corporation
  • Phonographic Copyright (p) – WEA International Inc.
  • Copyright (c) – Elektra Entertainment

Video

Album

John O'Banion 16 February 1947 14 February 2007 was an American vocalist and actor. He was born in Kokomo, Indiana in 1947 and was performing in theater by the age of 13 as well as in a local Indiana band Hog Honda & the Chain Guards. By age 15, he hosted his own radio show on WIOU and had hosted his own local television show by age 20. O'Banion was the lead singer in Doc Severinsen's band, Today's Children. He was managed by Bud Robinson, also Doc's manager. They parted ways in early 1974. John O'Banion - John O'banion 1981. To favorites 0 Download album. Listen album. John O'Banion. Songs in album John O'Banion - John O'banion 1981. John O'Banion - Love You Like I Never Loved Before. John O'Banion - You're In My Life Again. John O'Banion - Love Is Blind. John O'Banion - Our Love Can Make It. John O'Banion - Love Is In Your Eyes. John O'Banion - Come To My Love. Label: Eastworld CA35-1051 Format: CD, Album Country: Japan Released: 21 Dec 1983 Tracklist 1 八剣士のテーマ White Light 2 Body Heat 3 Turn Out The Light 4 O'Banion 16 February 1947 14 February 2007 was an American vocalist and actor born in Kokomo Indiana. His song Love You Like I Never Loved Before was a hit single in 1981 from his self titled debut album on Elektra, and the song made it to 24 on the Billboard Hot 10 read more. John O'Banion 16 February 1947 14 February 2007 was an American vocalist and actor born in Kokomo Indiana. His song Love You Like I Never Loved Before was a hit single in 1981 from his self titled debut album on Elektra, and the song made it to 24 on the Billboard Hot 100. John OBanion. Released 1981. John OBanion Tracklist. More John OBanion albums. Your Rating. Overview . John O'Banion: American vocalist and actor. Love You Like I Never Loved Before, Satomi Hakken-Den. John O'Banion John O'Banion. Etichetta: Elektra WPCP-3452. Serie: Forever Young Series . Formato: CD , Album, Reissue. John O'Banion John O'BanionFull Vinyl LP 33:02. John O'Banion - Love You Like I Never Loved Before 3:24. Aggiungi alla Lista. valdek , eighties1 , choan , collins999. Chi siamo. Album 1981 10 Songs. Discover all of this album's music connections, watch videos, listen to music, discuss and download. Album by John O'Banion. Love Is Blind. was covered in. Love Is Blind by Uriah Heep 1983

Landarn
foobar2000 1.3.17 / Dynamic Range Meter 1.1.1
log date: 2018-07-25 19:20:45

--------------------------------------------------------------------------------
Analyzed: John O'Banion / John O'Banion [JP 1990 CD]
--------------------------------------------------------------------------------

DR Peak RMS Duration Track
--------------------------------------------------------------------------------
DR12 -1.75 dB -16.79 dB 3:24 01-Love You Like I Never Loved Before
DR13 -0.45 dB -17.87 dB 3:10 02-You're In My Life Again
DR13 -1.08 dB -17.63 dB 3:35 03-Love Is Blind
DR13 -0.20 dB -15.05 dB 3:14 04-Our Love Can Make It
DR13 -0.20 dB -15.68 dB 3:18 05-Love Is In Your Eyes
DR14 -0.20 dB -16.55 dB 3:24 06-Come To My Love
DR14 -0.40 dB -17.04 dB 3:17 07-Take A Chance On Love
DR12 -0.64 dB -15.79 dB 2:33 08-Walk Away Renee
DR15 -0.40 dB -17.34 dB 3:35 09-If You Love Me
DR14 -0.40 dB -18.07 dB 4:02 10-She's Not For You
--------------------------------------------------------------------------------

Number of tracks: 10
Official DR value: DR13

Samplerate: 44100 Hz
Channels: 2
Bits per sample: 16
Bitrate: 773 kbps
Codec: ALAC
================================================================================