» » Dave Raynor - Rain Or Shine
Dave Raynor - Rain Or Shine Album
Rock
Performer: Dave Raynor
Title: Rain Or Shine
Style: Soft Rock
Year 2000
Country US
Label Not On Label
Genre: Rock
Rating: 4.5
Votes: 921
MP3 size: 1607 mb
FLAC size: 1990 mb
WMA size: 1405 mb
Record From: CD, Album, Reissue

Dave Raynor - Rain Or Shine Album

Tracklist

1I Can't Take It4:07
2Leave Me Alone Tonight4:09
3Rain Or Shine3:41
4The Way It Used To Be3:41
5Little Ones3:16
6You've Got It4:17
7Stay Here Tonight4:47
8Slip Away Tonight3:36

Versions

CategoryArtistTitle (Format)LabelCategoryCountryYear
FA-7757Dave Raynor Rain Or Shine ‎(LP)First American RecordsFA-7757US1981
ALP9Dave Raynor Rain Or Shine ‎(CD)Dave Raynor ProductionsALP9Japan2008

Credits

  • Arranged By [Strings]Ed Kinder, Martin Lund (tracks: 7, 8)
  • Art DirectionClint Taylor
  • Engineer [Other]Bob Israel, Bruce Buckner , Diana Raynor, Jim Wolfe
  • Executive-ProducerJim Wolfe
  • Mastered ByBrian Gardner
  • Photography ByJim Hadley
  • Producer, Engineer, Written-ByDave Raynor

Barcodes

  • Barcode: none
  • Matrix / Runout: 2013481
  • Mastering SID Code: IFPI LK79
  • Mould SID Code: IFPI Y701

Companies

  • Recorded At – The Music Source
  • Mixed At – The Music Source
  • Mastered At – Allen Zentz Mastering

Video

Album

Rain or Shine - Dave Raynor. Лента с персональными рекомендациями и музыкальными новинками, радио, подборки на любой вкус, удобное управление своей коллекцией. Dave Raynor - Rain Or Shine 1981. To favorites 0 Download album. Listen album. Soft Rock. Dave Raynor. Songs in album Dave Raynor - Rain Or Shine 1981. Dave Raynor - The Way It Used To Be. Dave Raynor - Leave Me Alone Tonight. Dave Raynor - Stay Here Tonight. Dave Raynor - Rain Or Shine. Dave Raynor - Slip Away Tonight. Dave Raynor - I Can't Take It. Dave Raynor - You've Got It. Update Required To play the media you will need to either update your browser to a recent version or update your Flash plugin. Play jigsaw puzzles for free Home. Rain Or Shine, 2014. Leave Me Alone Tonight, 04:07. Stay Here Tonight, 04:52. I Can't Take It, 04:06. You've Got It, 04:16. Rain or Shine may refer to: Rain or Shine film, a 1930 film directed by Frank Capra. Rain or Shine Dick Haymes album. Rain or Shine Houston Person album. Rain or Shine . Rain or Shine Paul Carrack album. Rain or Shine song, a 1986 song by Five Star. Rain or Shine Elasto Painters, a team in the Philippine Basketball Association. Rain or Shine TV series, a 2017 South Korean TV series. Come Rain or Come Shine, a 1946 popular song. Completa la tua Collezione su Dave Raynor. riferendosi a Rain Or Shine, CD, Album, RE, none. Hooray full dynamic range, not compressed at all : foobar2000 , Dynamic Range Meter log date: 2019-10-28 21:35:35. Dave Raynor - I Can't Take It 1981 4:09. Stay Here Tonight Off Rain Or Shine Video Mix 4:48. Dave Raynor - Rain Or Shine 1980 3:42. Dave Raynor - Slip Away Tonight 1980 3:37. Dave Raynor - I Can't Take It 1980 4:09. Label: Dave Raynor Productions ALP9 Format: CD Country: Japan Released: 2008 Tracklist 1 The Way It Used To Be 2 Leave Me Alone Tonight 3 Stay 2014 8 Songs. Rain or Shine. Rock or Shine Houston Person album. Rain or Shine is an album by saxophonist Houston Person which was recorded in 2017 and released on the HighNote label. On All About Jazz, Jack Bowers noted Tenor saxophonist Houston Person, now in his eightieth decade, has made no concessions to Father Time, choosing instead to use his many years in the jazz trenches to forge a style all his own, bathed in blues and soul but never turning a deaf ear to the allure of a seductive and tasteful. Dave Raynor: Ten Foot Pole, Little Ones, After All и другие песни. Stay Here Tonight. Rain Or Shine

Flash_back
Hooray full dynamic range, not compressed at all :)

foobar2000 1.4.4 / Dynamic Range Meter 1.1.1
log date: 2019-10-28 21:35:35

--------------------------------------------------------------------------------
Analyzed: Dave Raynor / Rain Or Shine [US 1981/2000 CD]
--------------------------------------------------------------------------------

DR Peak RMS Duration Track
--------------------------------------------------------------------------------
DR15 -0.98 dB -17.96 dB 3:41 01-The Way It Used to Be
DR15 -0.49 dB -17.58 dB 4:09 02-Leave Me Alone Tonight
DR13 -2.79 dB -19.47 dB 4:47 03-Stay Here Tonight
DR14 -2.05 dB -18.25 dB 3:41 04-Rain Or Shine
DR14 -0.97 dB -17.50 dB 3:36 05-Slip Away Tonight
DR16 -0.66 dB -18.89 dB 4:07 06-I Can't Take It
DR16 -0.13 dB -18.29 dB 4:17 07-You've Got It
DR14 -3.36 dB -22.53 dB 3:16 08-Little Ones
--------------------------------------------------------------------------------

Number of tracks: 8
Official DR value: DR15

Samplerate: 44100 Hz
Channels: 2
Bits per sample: 16
Bitrate: 723 kbps
Codec: ALAC
================================================================================
Brakree
This album is originally from 1981.